#TITLE:Seft;
#SUBTITLE:Tony;
#ARTIST:Park Jung Hui;
#TITLETRANSLIT:;
#SUBTITLETRANSLIT:;
#ARTISTTRANSLIT:;
#CREDIT:Tony.C;
#BANNER:;
#BACKGROUND:;
#LYRICSPATH:;
#CDTITLE:;
#MUSIC:Seft.mp3;
#OFFSET:-0.160;
#SAMPLESTART:110.480;
#SAMPLELENGTH:12.000;
#SELECTABLE:YES;
#DISPLAYBPM:140.000;
#BPMS:0.000=140.090,7.000=281.800,7.646=70.450,8.000=140.900,23.000=281.800,23.542=70.450,23.750=140.900,64.000=140.000,76.000=140.900,119.000=281.800,119.667=70.450,120.000=140.900,121.000=281.800,121.688=70.450,122.000=140.000,124.000=140.900,200.000=70.450,201.500=140.900,201.958=281.800,203.000=140.000,223.000=281.800,223.625=70.450,223.875=140.000,224.000=281.800,224.625=70.450,224.875=140.000,230.000=281.800,230.688=70.000,231.000=140.100,234.000=281.800,234.625=70.450,235.000=140.900,242.000=281.800,242.688=70.450,243.000=140.900;
#STOPS:;
#BGCHANGES:;
// cache tags:
#FIRSTBEAT:0.000;
#LASTBEAT:338.500;
#SONGFILENAME:Songs/Music V.I.P ^_^/Seft/Seft.sm;
#HASMUSIC:1;
#HASBANNER:0;
#MUSICLENGTH:146.792;
// end cache tags

//---------------dance-single - ----------------
#NOTES:
     dance-single:
     :
     Hard:
     17:
     1.000,1.000,1.000,0.163,1.000,950.000,341.000,24.000,0.000,158.000:
1011
0000
0000
0100
0000
0000
0010
0000
0000
0001
0000
0000
1010
0000
0100
0000
,
1011
0000
0000
0100
0000
0000
0010
0000
0000
0000
1000
1000
0011
0000
0000
0000
,
1011
0000
0000
0100
0000
0000
0010
0000
0000
0001
0000
0000
1010
0000
0100
0000
,
1011
0000
0000
0000
0000
0000
0100
0000
0000
0000
0000
0000
1000
0000
0000
0000
0000
0000
0000
0000
0000
0000
0100
0010
1001
0000
0010
0000
0100
0000
1000
0000
,
1011
0000
0000
0101
1010
0000
1001
0000
1010
0101
0000
0000
1010
0000
0101
0000
,
1011
0000
0000
1100
0011
0000
1000
0100
0001
0100
0010
1000
0110
0000
0000
0001
,
1101
0000
0000
1010
0101
0000
1010
0000
0101
1010
0000
0000
0101
0000
1010
0000
,
2101
0000
0010
0000
0100
0000
0001
0010
0101
0000
0101
0010
0101
0010
0101
0011
,
3010
1000
0100
0010
1101
0010
0100
1000
0001
0010
0100
0010
1101
0010
0001
1000
,
0010
0100
0001
0010
1101
0010
0100
1000
0100
0010
0001
0010
1101
0010
0100
0010
,
1000
0010
0001
0100
1011
0100
0010
0001
1000
0100
0010
0100
1011
0100
0010
0100
,
0001
0100
0011
1000
0100
1000
0011
1000
0100
1000
0011
1000
0100
0000
0110
0000
,
1010
0100
0001
0010
1101
0010
0100
0001
0010
0100
1000
0010
1101
0010
1000
0100
,
0001
1000
0100
0010
1101
0010
0001
0100
1000
0010
0100
0010
1101
0010
0100
0010
,
1000
0010
0001
0100
1011
0100
0001
0010
0100
1000
0010
0100
1011
0100
1000
0010
,
1000
0000
0010
0000
0001
0000
0100
0000
1011
0000
0100
0000
0010
0000
0001
0000
1010
0000
0001
0000
1100
0000
0010
0000
1100
0000
0010
0000
1001
0000
0010
0001
,
2100
0000
0200
0000
0001
0000
0000
0000
0001
0000
0001
0000
0001
0000
0001
0001
,
3311
0100
1101
0010
0110
0100
0011
0100
,
1011
0100
0001
1100
0001
1010
0101
0101
,
1110
0001
1100
0001
0110
1000
1011
1000
,
1110
0001
0101
1000
0101
0100
1011
1001
,
1010
0101
0010
1100
0101
1000
0110
1000
,
0110
0001
0011
0100
0101
0010
1001
1001
,
1010
0000
0102
0000
1000
0000
0010
0000
1000
0010
0100
1000
0000
1000
0100
1000
,
0120
0000
0000
0000
1000
0000
0000
0000
1000
0000
1000
0000
1000
0100
1000
1000
,
0133
0000
0000
0100
1011
0000
0010
0000
0100
0000
0000
0100
0011
0000
0100
0000
,
1010
0000
1100
0000
0011
0000
1000
0100
0001
0010
0001
0000
1010
0000
0101
0000
,
1100
0000
0000
0001
1010
0000
0101
0000
1001
0000
0100
0010
1001
0000
1010
0000
,
1001
0000
0000
0100
0101
0000
0011
0000
1100
0000
1000
0010
0101
0000
0110
0000
,
1101
0010
0000
1000
0101
0000
1010
0000
0101
0000
0011
0100
1010
0000
0000
0000
,
1101
0000
0000
0000
0000
0000
0100
0000
0000
1000
0000
0000
0111
0000
0000
0000
0000
0000
0000
0000
0000
0000
0000
0000
1011
0000
0000
0000
0000
0000
0000
0000
1101
0000
0000
0000
0000
0000
0000
0000
1110
0000
0000
0000
0000
0000
0000
0000
,
2011
0000
0100
0000
0001
0000
0010
0000
0101
0010
0100
0001
0110
0001
0100
0010
,
3102
0000
0010
0000
1000
0000
0100
0000
1010
0100
1000
0100
1000
0100
1010
1010
,
1013
0011
1000
0010
1011
0100
1010
0011
,
1100
0001
1010
0001
1101
0010
1001
1001
,
2010
0000
0100
0000
0011
0000
0001
0100
0010
0100
0011
0000
0010
0000
0101
0000
,
3110
0001
1001
0010
1001
0100
1001
1010
,
0201
0000
1000
0000
0010
0000
0010
0001
0010
1000
0001
0000
0011
0000
1000
0000
,
0311
0000
1000
0000
0101
0000
0100
0000
1010
0000
0100
1000
0011
0000
1110
0000
,
1021
0001
0100
1001
0100
0001
1001
1100
,
1132
0000
1010
0100
1000
0000
1000
0100
1010
0000
1000
1000
0010
0010
1000
1000
,
0113
0001
0010
0100
1011
0100
0010
1000
0001
0100
0010
1000
1011
0100
0010
1000
,
0100
0001
0010
0100
1011
0100
0010
0001
1000
0010
1000
0100
1011
0100
0011
0100
,
1000
0010
1000
0100
1011
0100
0001
1000
0010
1000
0010
0100
1011
0100
1000
0001
,
1100
0011
0110
1100
0111
1110
1101
1110
,
1100
0010
0001
0010
1101
0010
1000
0001
0010
0100
0001
1000
1101
0010
0001
0001
,
1000
0010
0100
0010
1101
0010
0001
0100
1000
0010
0100
0001
1101
0010
0100
1000
,
0010
0100
0001
0010
1101
0010
0001
1000
0010
0100
0010
1000
1101
0010
0001
0001
,
0100
0010
1001
0100
0001
0100
1010
0100
1001
0010
0101
1000
0101
0010
0101
1000
,
0221
0000
0000
0000
0000
0000
0000
0000
0000
0000
1001
1001
0000
0000
1001
0000
,
1331
0000
0000
1001
0000
0000
1001
0000
0000
0000
0100
0010
1001
0000
0000
0000
0000
0000
0000
0000
0000
0000
0000
0000
2011
0000
0000
0000
0100
0000
0000
0000
,
0010
0000
0000
0000
0100
0000
0010
0000
0001
0000
0000
0000
0101
0000
0001
0000
0000
0000
0000
0000
0011
0000
0000
0000
3101
0000
0000
0000
1000
0001
0000
0000
,
0100
0000
0000
0001
0100
0000
1000
0000
0000
0000
0000
0000
0001
1000
0010
0100
1000
0000
0010
0000
0100
0000
0001
0000
1020
0000
0000
0000
0000
0000
0000
0000
,
1000
0000
0100
1000
0101
0000
1000
1000
0000
0000
1000
0000
1031
0000
0010
1000
,
0100
0000
1010
0000
0000
0000
1011
0000
1011
0000
0110
0000
1001
0000
0000
0010
,
0000
0000
0000
0000
0100
0000
0000
0000
0010
0000
0000
0000
0001
1000
0001
0000
0000
0000
0100
0001
0000
0000
0000
0000
1101
0000
0000
0000
0000
0000
0000
0000
,
0110
0000
0000
0000
1011
0000
0000
1100
0000
0000
0111
0000
2011
0000
0000
0000
,
0000
0000
0101
3111
,
0000
0000
0000
0000
0000
0000
0010
0010
1101
0000
0000
0000
1101
0000
0000
0011
,
0000
0000
0110
0000
0000
1100
0000
0000
0110
0000
0011
0000
1002
0000
0000
0100
,
0000
0000
0010
0000
0000
0000
0000
0000
1100
0000
0000
0000
1013
0000
0000
0010
,
1001
0100
0011
0000
1100
0010
0100
0010
1001
0000
0110
0000
1100
0000
0000
0010
,
1100
0010
0101
0000
1010
0000
0001
0000
1100
0000
1000
0000
1011
0000
0000
0010
,
1100
0010
0101
0000
1100
0010
0000
0001
1010
0000
0110
0000
1101
0000
0000
0000
,
1000
0000
0000
0000
0000
0000
0000
0000
0001
0000
0000
0000
0010
0000
0000
0000
1100
0000
0000
0000
0000
0000
0000
0000
1000
0000
0000
0010
0100
0000
0000
0000
1010
0000
0000
0000
1000
0001
0000
0000
0110
0000
0000
0000
0010
0000
0000
0000
1001
0000
0000
0000
0100
0000
0000
0000
0010
0000
0000
0000
0001
0000
0000
0000
,
1101
0010
0100
0010
1001
0010
0100
1000
1101
0010
0100
0010
1001
0100
0010
0001
,
1101
0010
0100
0010
1001
0010
0100
1000
1101
0010
0100
0010
1001
0100
0010
0001
,
1101
0010
0100
0010
1001
0010
0100
1000
1101
0010
0100
0010
0101
1000
0010
0010
,
1100
0001
0100
0011
1000
0011
1100
0000
1001
0100
1001
0010
1001
0010
0100
1000
,
1011
0100
0010
0100
1001
0100
0010
0001
1011
0100
0010
0100
1001
0010
0100
1000
,
1011
0100
0010
0100
1001
0100
0010
0001
1011
0100
0010
0100
1001
0010
0100
1000
,
1011
0100
0010
0100
1001
0100
0010
0001
1011
0100
0010
0100
1001
0010
0101
1000
,
0011
0100
1001
0010
0101
1000
0011
0100
0011
1000
0011
0101
1010
0100
0010
0001
,
1110
0001
0010
0100
1001
0010
0100
1000
0111
1000
0100
0010
1001
0100
0010
0001
,
1110
0001
0010
0100
1001
0010
0100
1000
0111
1000
0100
0010
1001
0100
0010
1100
,
1100
0001
0010
0100
1001
0010
0100
0011
0011
1000
0100
0010
1001
0100
0010
1100
,
1100
0001
0010
0100
1001
0010
0100
0011
0011
1000
0100
0010
1001
0010
0100
1000
,
0111
1000
0100
0010
1001
0100
0010
0001
1110
0001
0010
0100
1001
0010
0100
1000
,
0111
1000
0100
0010
1001
0100
0010
0001
1110
0001
0010
0100
1001
0010
1000
0111
,
0111
1000
0100
0010
1001
0100
0001
1110
1110
0001
0010
0100
1001
0010
1000
0111
,
0111
1000
0100
1000
0011
0100
0010
1000
0111
1000
0110
0001
1010
0100
0010
1001
,
0110
1000
0100
0001
0110
1000
0010
0001
0110
0001
1010
0100
2012
0100
0100
0010
,
0100
0220
0000
0000
0000
0000
3003
0000
,
1001
0000
0000
0000
0331
1000
0010
0100
1001
1001
0110
0110
1001
0000
0000
1110
,
0000
0222
0000
0000
0000
0333
0000
0000
;
